#TITLE:The Best;
#SUBTITLE:Initiate;
#ARTIST:Kangta;
#TITLETRANSLIT:;
#SUBTITLETRANSLIT:;
#ARTISTTRANSLIT:;
#CREDIT:;
#BANNER:Thebest-bn.jpg;
#BACKGROUND:;
#LYRICSPATH:;
#CDTITLE:cdtitle.png;
#MUSIC:The Best.mp3;
#OFFSET:0.140;
#SAMPLESTART:100.000;
#SAMPLELENGTH:12.000;
#SELECTABLE:YES;
#DISPLAYBPM:100.000;
#BPMS:0.000=100.000,118.000=50.000,129.000=75.000,132.000=100.000;
#STOPS:;
#BGCHANGES:;
// cache tags:
#FIRSTBEAT:0.500;
#LASTBEAT:188.000;
#SONGFILENAME:Songs/Initiate/thebest/The Best.sm;
#HASMUSIC:1;
#HASBANNER:1;
#MUSICLENGTH:119.753;
// end cache tags

//---------------dance-single - ----------------
#NOTES:
     dance-single:
     :
     Hard:
     7:
     0.805,0.805,1.000,0.242,0.639,475.000,170.000,29.000,0.000,17.000:
0000
0000
0020
0000
0000
0000
0000
0000
0000
0000
0000
0030
0010
0100
0010
0100
,
1010
0000
0000
0000
0101
0010
0000
0000
1000
0000
0000
0000
0110
0000
1000
0000
,
0100
0010
0001
0010
1001
0110
0100
0000
0101
0000
0100
0000
0101
0000
0100
0000
,
0101
0000
0000
0000
1001
0010
0001
0010
0001
0010
0100
0010
0101
0000
1000
0000
,
0110
0000
0001
0010
0110
0100
1000
0100
0110
0000
0110
0000
0110
0000
0110
0000
,
0110
0000
0000
0000
1002
0100
0000
0000
1123
0000
0000
0000
0100
0000
1030
0000
,
1100
0100
0010
0100
0010
0100
0010
0000
0110
0000
0110
0000
0110
0000
0110
0000
,
0110
0001
0100
0001
0100
0010
0100
1000
0100
1000
0100
0001
0100
0000
0010
0000
,
0110
0100
1000
0100
1000
0100
1000
0100
1001
0000
1001
0000
1001
0000
1001
0000
,
1001
0000
0001
0010
0101
0010
0001
0100
1010
0000
1000
0010
0101
0000
0001
0000
,
0100
0000
1000
0100
0011
1000
0100
0001
1010
0000
0101
0000
0110
0000
1001
0000
,
0100
0000
0010
0100
1001
0110
0001
0010
0101
0000
1000
0100
1010
0000
0100
0000
,
0010
0000
0110
1000
0101
1010
0001
0100
0011
0000
0110
0000
1001
0000
0110
0000
,
0001
0000
0100
0010
0011
1100
0010
1000
0101
0000
0010
0001
1010
0000
0001
0000
,
0101
0000
0001
1000
0011
0100
0010
0001
0110
0000
0011
0000
1001
0000
0110
0000
,
0010
0000
1000
0100
1010
0001
1000
0100
1010
0000
0100
0001
1010
0000
0100
0000
,
0011
0000
0100
0001
0110
1001
0100
0001
0110
0000
0101
0000
1020
0000
1100
0000
,
0001
0000
0130
0010
0001
0100
1000
0100
0001
0000
0100
0020
0000
0000
1030
0000
,
0010
1000
0001
0100
0000
0001
0100
0000
1100
0000
0110
0000
0011
0000
0101
0000
,
1010
0000
0010
0001
0010
1000
0100
1000
0100
0000
0001
0020
0000
0000
1030
0000
,
1200
0000
0321
0000
0132
1010
1013
1010
,
1010
0000
0001
1000
0100
0010
0001
0100
1000
0000
0010
0200
0000
0000
0311
0000
,
0100
0000
1000
0001
0010
0100
1000
0010
0001
0000
0100
0020
0000
0000
1130
0000
,
0001
0000
0010
1000
0100
0010
0001
0100
0010
0000
0001
0200
0000
0000
0311
0000
,
1100
0010
0011
0010
0101
0101
0101
0101
,
0101
0000
0100
0001
0010
0100
1000
0010
0100
0000
1000
0020
0000
0000
1130
0000
,
0010
0000
1000
1000
0100
0010
0001
0100
0010
0000
0010
0200
0000
0000
1301
0000
,
0100
0000
0001
0001
0010
0100
1000
0010
0100
0000
1000
0002
0000
0000
1103
0000
,
1100
0001
1100
0001
1100
0110
1100
0110
,
2200
0000
0000
0000
0000
0000
0000
0000
0000
0000
0000
0000
0000
0000
0000
0000
3301
0000
0010
0000
0100
0000
0000
0000
1000
0000
0100
0000
0010
0000
0100
0010
,
0001
0000
0010
0000
0100
0000
1000
0000
0200
0000
0300
0020
0000
0000
0230
0000
0000
0000
0000
0000
0000
0000
0000
0000
1310
0000
0000
0000
0000
0000
1000
0100
,
0010
0000
0001
0000
0010
0000
0100
0000
0001
0100
0010
1000
0000
0001
0000
0200
0000
0000
0000
0000
0000
0000
0000
0000
0320
0000
0000
0000
0000
0000
0000
0000
,
0230
0000
0000
0000
0000
0000
0000
0000
1301
0000
0000
0000
0000
0000
0101
0000
0000
0000
0000
0000
0101
0000
0000
0101
0000
0000
0101
0000
0000
1010
0000
0000
,
0101
0000
1000
0100
1010
0101
0001
0010
0101
0000
1000
0100
1010
0000
0001
0000
,
0100
0000
0001
0010
0101
1001
1000
0100
1010
0000
1001
0010
0101
0000
1000
0000
,
0101
0000
1000
0100
1010
0101
0100
0010
0101
0000
1000
0100
1010
0000
0010
0000
,
0110
0001
1100
0100
0011
0110
1100
0110
,
0011
0000
0001
0010
1001
0110
0001
0010
1001
0001
0001
0010
1001
0000
1001
0000
,
1001
0000
1000
0100
1001
0110
1000
0100
1001
1000
1001
0100
1001
0000
1001
0000
,
1001
0000
0100
0010
1100
0011
0100
0010
1100
0010
0100
0010
0101
0000
1001
0000
,
0110
1000
0101
0010
1100
0110
0011
0110
,
0220
0000
0000
0000
0000
0000
0000
0000
0000
0000
0000
0330
1000
0100
0010
0100
,
1010
0000
0000
0000
0201
0010
0000
0000
1302
0000
0000
0000
0113
0000
1000
0000
,
0001
0010
0001
0010
0001
0010
0100
0000
0101
0000
0010
0000
0101
0000
0010
0000
,
0101
0000
1000
0100
1000
0010
0100
0010
0100
0010
0100
1000
0100
0000
0101
0000
,
0110
0010
0100
0010
0100
0010
0100
1000
0101
0000
0101
0000
0101
0000
0101
0000
,
0202
0000
0000
0000
,
0303
0000
0000
0000
;
